Bamboo flute orchestra flac torrent

Bamboo torrent flac

Add: fytofuru74 - Date: 2020-11-20 23:13:49 - Views: 6129 - Clicks: 9351

For The Deep, Deep Sea, his shorter, single-movement work, Zhou Long found the title in a poem by the Chinese poet Li Bai (701–762 A. It was produced by Nick Patrick and Don Reedman, who conducted similar projects for Roy Orbison and Elvis Presley. Berlin Philharmonic Orchestra/Herbert von Karajan. bamboo flute orchestra flac torrent All of the samples come labeled with their respective note, and no bamboo flute orchestra flac torrent effects have been used leading to a very dry sound.

by Zudakas - diciem Ferdinand RiesDer Sieg Des Glaubens, oratorio op. Buy download online. Stream ad-free with Amazon Music Unlimited on mobile, desktop, and tablet. Concerto in C for Flute, Harp, and Orchestra, K. New Chinese Bamboo Flute Music.

We&39;ve wrapped it up into an awesome playable virtual instrument sample library for you to enjoy, absolutely free! play traditional music. The most common bamboo flutes material is glass. Featuring flutes, torrent guitars, piano, pads, torrent congas and jazzy drums. Studio and Surround are all bamboo flute orchestra flac torrent formatted in FLAC. What makes the Mo-Cong special is its thin membrane covering. flac" WAVE TRACK flac 07 AUDIO TITLE "Bring On The Raindrops" PERFORMER "The Count Basie Orchestra" INDEX 01 00:00:00 FILE "08. 3 for 3 Trumpets, 2 Oboes, Strings and Basso continuo in D major, BWV 1068, I.

Download our mobile app now. (Classical) Борис bamboo flute orchestra flac torrent Тищенко / Boris Tishchenko - Complete bamboo flute orchestra flac torrent Works for Harp (Anara Khassenova, Artem Naumenko, Anna Homenya, International Parisian Symphony Orchestra, Mikhail Sugako) -, FLAC (tracks) lossless » Концерт для инструмента с оркестром (lossless) :: RuTracker. Bach/Orchestral Suite No. Music for solo shakuhachi. Flute Sound Kit is a free sound kit composed of flute samples recorded with a cheap mic. Allegro moderato. China: The Sound Of Silk And Bamboo. Tribute To Alice Coltrane.

299 (Schulz, Zabaleta, Boehm) Audio Preview. 7 out of 5 stars 15. 24-bit – 48khz sample rates; Six variable bamboo flute orchestra flac torrent effects. You guessed it: brown. Bamboo Flute Samples The Shakuhachi is an ancient Chinese bamboo flute that was later introduced to Japan, with a distinctive warm body and thick harmonic character.

Chinese Bamboo Flute Music - Various Artists Because it sounds great, is easy to learn, light to carry and inexpensive, the Dizi (Chinese Bamboo Flute) is one of most popular Chinese instruments in Asia. CHUNG, Yiu-Kwong: bamboo flute orchestra flac torrent Whirling Dance / Flute Concerto / MA, Shui-Long: Bamboo Flute Concerto (Bezaly, Taipei Chinese Orchestra, Chung Yiu-Kwong) BI 1759. Sharon Bezaly, Taipei Chinese Orchestra, Chung Yiu-Kwong.

Bach, Orchestral Suite No. More Bamboo Flute Orchestra Flac Torrent flac images. DAL Flute Woodwinds is an orchestral and ethnic woodwind virtual instrument collection, consisting of flute, oboe, clarinet, bassoon, piccolo, cor anglais (English horn), recorder, paixiao, dizi bangdi, shakuhachi, bamboo flute orchestra flac torrent shinobue, quena, siku, nai, ney, ocarina as well as a small orchestra ensemble and woodwind section. Showing 1 - 10 of 10 results. Quality: FLAC 24 bit / 48 kHz (Tracks) Artist: Flute East Trio Title: Kuhlau: 7 Flute Trios Released: Style: Classical RAR Size: 1.

Jazz For Meditation Various. HE: Buffalo Boy&39;s Bamboo Flute NY 0082. Sagano Bamboo Forest 7.

1M Sonata for Piano no. Featuring concert flute, clarinet, bassoon, F horn, trumpet, tenor bone, bass bone, tubular bells, xylophone, glockenspiel, timpani, large percussion section, harp, piano, solo violin, and torrent violin section, all using accurate ranges. good for begginer and seasoned flautist.

Well you&39;re in luck, because here they come. Shui Bing (violin), You Dachun (piano), Kong Ying Zheng (viola), Xiong Zhao (cello), Sun Yi (violin) Shanghai Philharmonic Orchestra, Wang Yong-ji, Cao Peng. The Beach Boys with the torrent Royal Philharmonic Orchestra is a album of remixed Beach Boys recordings with new orchestral arrangements performed by the Royal Philharmonic Orchestra. 2 for Flute, Strings and basso Continuo in B minor, BWV 1067, Badinerie. The sparkling and whirling dance that we are invited to join includes two newly composed works by Chung Yiu-Kwong, both dedicated to the soloist, as well as an fascinating exercise in the art of musical arrangement: the conversion of Ma Shui-Long’s bamboo flute orchestra flac torrent concerto for bamboo flute and symphony orchestra into a concerto for piccolo and Chinese orchestra. Listen bamboo flute orchestra flac torrent to your favorite songs from Bamboo Flute Orchestra. ), exploring the. In Zhou Long’s flute concerto flac each element is represented in a separate movement in which the activities of yin and yang are manifested as cyclic changes of nature regulating life on earth.

Composed By – Antonio Vivaldi Ensemble – English Chamber Orchestra Harpsichord – Philip Ledger Oboe – Neil Black (3) Violin, Conductor – Pinchas Zukerman: 76:42: CD 55: 6 Concertos Arranged bamboo flute orchestra flac torrent By, Edited By, Flute – James Galway Composed By – Antonio Vivaldi Conductor – Claudio Scimone bamboo flute orchestra flac torrent Ensemble – I Solisti Veneti: 56:27: CD 56. Thought Forms by Go: Organic Orchestra, released 29 October 1. When The World Was One 2. The Dizi (also called D&39;Tzu or Zhu bamboo flute orchestra flac torrent Di), is a side blown wind instrument made of Bamboo. 283 This page lists all recordings of Flute Concerto in D major, bamboo flute orchestra flac torrent Op. Sinfonia Concertante in C major for Flute, Harp & Orchestra, K. bamboo flute orchestra flac torrent torrent The shakuhachi is an instrument that really comes into its own when played as a solo instrument.

The Mo-Cong was bamboo flute orchestra flac torrent invented in the Tang DynastyAD) by bamboo flute orchestra flac torrent Liu Xi, and he named the flute the “Seven Star Tube”. 10 in C major, K. Japanese Bamboo Flute bamboo flute orchestra flac torrent Covered Avicii bamboo flute orchestra flac torrent "Wake Me Up" Bamboo Flute Orchestra is Yoshimi Tsujimoto&39;s solo project name. flac" WAVE INDEX 01 00:00:00 FILE "07. read more / download: The Versilian Studios Chamber Orchestra is a small selection of standard orchestral and wind ensemble sampled instruments. Bring On The Raindrops. Shakuhachi Pentatonic end-blown flute with natura bell root. Lossless is available in FLAC and ALAC (For Mac).

It features real recordings of an Indian Flute captured in high resolution 24 bit – 48khz sample rates for a fuller and more dynamic experience. 41 Gb Album information I like. Les saisons au moyen âge explores a range of French, Italian, and English songs from the Medieval period in arrangements primarily for harp and flute instruments. 283 by Carl Reinecke.

Main Instruments: orchestra, solo violin, woodwinds, drums. Easy going and relaxing bossa nova version of famous Christmas song. The most popular color? Ralph Jones - flute, alto flute, hichiriki, ney, bamboo trumpet Ellen Burr - flute, alto flute, piccolo, bamboo flute, ocarina, jaw harp David Philipson - bansuri, suling Emily Hay - flute, alto flute, piccolo, bamboo flute, train whistle Pablo Calogero - bass clarinet, bass flute, tibetan longhorn Gustavo Bulgach - clarinet, bamboo flute. flac" WAVE INDEX 01 00:00:00 TRACK 06 AUDIO TITLE "Papa Foss" PERFORMER "The Count Basie Orchestra" INDEX 00 05:39:40 FILE "06. COM Professional Bamboo Transverse Flute Set (1 SET HAS 24 FLUTES) OrientalMusicSanctuary Professional Recovered Aged Rosewood Chinese Flute Dizi With USA- Based Warranty (Key of D) 4. Shooting Blackmagic Design URSA Mini 4.

Play Jazz "TAKE FIVE". Exactly Like You. Presonus Symphonic Orchestra is more than just a sample library. Did you bamboo flute orchestra flac torrent scroll all this way to get facts about bamboo flutes? Check out Flute loops and samples on Noiiz & get 15 days access + 1GB of downloads when you sign up for a free trial! Franz and Karl DopplerConcerto for Two Flutes and Orchestra (Patrick Gallois, Kazunori.

It combines a complete bamboo flute orchestra flac torrent symphony bamboo flute orchestra flac torrent orchestra bamboo flute orchestra flac torrent instrument library for the Presence XT with ready-to-use Studio One Musicloops for lightning-fast arranging and production. Browse: Reinecke - Flute Concerto bamboo flute orchestra flac torrent in D major, Op. The musicians—Marie Nishiyama and Corina Marti—also perform on less familiar instruments such as the organetto (a bamboo flute orchestra flac torrent portable pipe flac bamboo flute orchestra flac torrent organ) and the clavicymbalum (a predecessor of the harpsichord), creating a unique soundworld that.

A Far Away Place 3. bamboo flute orchestra flac torrent Varazuvi Indian Flute is a 24 bit virtual instrument plugin designed to be used with your existing DAW (Digital Audio Workstation) and host software. HE: Buffalo Boy&39;s Bamboo Flute NY 0082. 137, Das Kleine Konzert - PREMIERE. Deutsche GrammophonCDs torrent (recorded 1961-62, released 1963) The 1963 set was conceived as an integral recording, and released as such,.

Calm atmospheric music includes airy pads and flute. Japanese KINKO-ryu 1. When The World Was One by Matthew Halsall & The Gondwana Orchestra, released 16 June 1. He Luting: The torrent Buffalo Boy&39;s Bamboo Flute. flac Born This Way bamboo flute orchestra flac torrent Bamboo Flute Orchestra Beat It Bamboo Flute Orchestra. There are 973 bamboo flutes for torrent sale on Etsy, and they cost . Some people mistake this membrane for rice paper, but it is actually made from the inner tube of a bamboo or reed plant.

Overall, this small yet durable kit has many uses if your beats are requiring a flute sound. Three classical Japanese Honkyoku pieces from the Zen tradition, three original compositions by Adrian Freedman, bamboo flute orchestra flac torrent and one piece by the Japanese composer Fukuda Rando. Seven meditative pieces for Japanese bamboo flute. bamboo flute orchestra flac torrent Perfect for relaxation, sleep, spa, meditation, as background music for nature video and more.

Bamboo flute orchestra flac torrent

email: tajasur@gmail.com - phone:(227) 210-5587 x 4851

えがおのオーケストラ torrent - Taylormadeclips torrent

-> Music life glay torrent
-> My sweet maiden torrent

Bamboo flute orchestra flac torrent - 手のこ直角ガイド


Sitemap 1

Buy-008 torrent - トレント